River Runs Red 2018 Movies HDRip x264 5 Torrent Free Download

Seeders : 744   &   Leechers : 519      09-11-2018 (1 week)
River Runs Red 2018 Movies HDRip x264 5 Torrent Download
Added: ago by nehalpuja ***** in Movies   786.7 MB   Hits : 20
Info Hash: CC0340A62BC0B67D13DAC5C9F186F7A06FFD4B1B Download
River Runs Red 2018 Movies HDRip x264 5 Torrent Download

Anonymous and Direct Download movies , software , shows...

Fast Safe Anonymous
movies, software, shows...
River Runs Red
Thriller   .   94 min   5.8/10
Director : Wes Miller  
Writer: Wes Miller  
Tags: River  Runs  Red  2018  Movies  HDRip  

Released:
09 Nov 2018
The son of an African-American Judge is killed by police officers on the day he was set to begin law enforcement academy. When the courts clear the officers of wrongdoing, the Judge must decide whether the courts are the only arbiters of justice.

Torrent Description



River Runs Red 2018 Movies HDRip x264 5.1 with Sample ☻rDX☻
===============================================================================================

SCREEN SHOTS:



or

http://iphonehosting.eu/2018/11/a/medicine/1.html

File size : 779 MiB
Duration : 1 h 34 min
Overall bit rate mode : Constant
Overall bit rate : 1 156 kb/s
Movie name : River Runs Red 2018 Movies HDRip x264 5.1 ☻rDX☻

Video
ID : 2
Format : AVC
Format/Info : Advanced Video Codec
Format profile : [email protected]
Format settings, CABAC : Yes
Format settings, ReFrames : 2 frames
Format settings, GOP : M=1, N=12
Codec ID : V_MPEG4/ISO/AVC
Duration : 1 h 34 min
Bit rate mode : Constant
Bit rate : 965 kb/s
Width : 720 pixels
Height : 304 pixels
Display aspect ratio : 2.35:1
Frame rate mode : Constant
Frame rate : 23.976 (24000/1001) FPS
Color space : YUV
Chroma subsampling : 4:2:0
Bit depth : 8 bits
Scan type : Progressive
Bits/(Pixel*Frame) : 0.184
Stream size : 634 MiB (81%)
Title : ☻rDX☻
Default : Yes
Forced : No

Audio
ID : 1
Format : AC-3
Format/Info : Audio Coding 3
Mode extension : CM (complete main)
Format settings, Endianness : Big
Codec ID : A_AC3
Duration : 1 h 34 min
Bit rate mode : Constant
Bit rate : 192 kb/s
Channel(s) : 6 channels
Channel positions : Front: L C R, Side: L R, LFE
Sampling rate : 44.1 kHz
Frame rate : 28.711 FPS (1536 spf)
Bit depth : 16 bits
Compression mode : Lossy
Stream size : 129 MiB (17%)
Title : ☻rDX☻
Default : Yes
Forced : No

http://www.imdb.com/title/tt5843780




Sharing Widget


No Comments For This Torrent . Be The First to Comment

You must Login to Comment . Click Here to Login

Menu 1

Some content in menu 1.

River Runs Red 2018 Movies HDRip x264 5 1 with Sample ☻rDX☻ (Size: 786.7 MB)
  River Runs Red 2018 Movies HDRip x264 5 1 with Sample ☻rDX☻ 786.7 MB
tracker name
udp://tracker.leechers-paradise.org:6969/announce
udp://zer0day.ch:1337/announce
udp://open.demonii.com:1337/announce
udp://tracker.coppersurfer.tk:6969/announce
udp://exodus.desync.com:6969/announce
µTorrent compatible trackers list

Relative Torrents

Torrent Name Size Age SEED LEECH
Haunted 1995 BRRip XviD MP3-XVID
Posted by    Trige   in   Movies
1.4 GB 1 minute 971 263
T I and Tiny Friends and Family Hustle S1E05 720p WEB x264-TBS
Posted by    Trige   in   TV
840.7 MB 2 minutes 994 738
T I and Tiny Friends and Family Hustle S1E05 1080p WEB x264-TBS
Posted by    Trige   in   TV
1.5 GB 2 minutes 619 461
T I and Tiny Friends and Family Hustle S1E05 WEB x264-TBS
Posted by    Trige   in   TV
538.0 MB 2 minutes 939 248
Youre Invited The Making Of Night Of TheDemons 2014 720p BluRay H264 AAC
Posted by    Trige   in   Movies
884.6 MB 4 minutes 912 946
Just Added | Rocco (Roko) 2016 | The X Factor UK S13E16 720p HDTV x264-FTP [eztv]