The Miseducation of Cameron Post | HD Die in One Day | Mayoiga: Tsumi to Batsu

Mary Shelley 2018 Movies HDRip x264 5 1 Torrent Free Download

Seeders : 865   &   Leechers : 158      01-06-2018 (5 months)
Mary Shelley 2018 Movies HDRip x264 5 1 Torrent Download
Added: ago by nehalpuja ***** in Movies   846.4 MB   Hits : 54
Info Hash: A29AD4179C344CB341A35569B2C8213ED4D7071D Download
Mary Shelley 2018 Movies HDRip x264 5 1 Torrent Download

Anonymous and Direct Download movies , software , shows...

Fast Safe Anonymous
movies, software, shows...
Mary Shelley
Biography /Drama /Romance  .   120 min   6.4/10
Director : Haifaa Al-Mansour  
Tags: Mary  Shelley  2018  Movies  HDRip  x264  

Released:
06 Jul 2018
Life and facts of Mary Wollstonecraft Godwin, who at 16 met 21 year old poet Percy Shelley, resulting in the writing of Frankenstein.

Torrent Description



Mary Shelley 2018 Movies HDRip x264 5.1 with Sample ☻rDX☻
===============================================================================================

SCREEN SHOTS:



or

http://iphonehosting.eu/2018/5/a/datacable/1.html

File size : 838 MiB
Duration : 2 h 0 min
Overall bit rate mode : Constant
Overall bit rate : 973 kb/s
Movie name : Mary Shelley 2018 Movies HDRip x264 5.1 ☻rDX☻

Video
ID : 2
Format : AVC
Format/Info : Advanced Video Codec
Format profile : [email protected]
Format settings, CABAC : Yes
Format settings, ReFrames : 2 frames
Format settings, GOP : M=1, N=12
Codec ID : V_MPEG4/ISO/AVC
Duration : 2 h 0 min
Bit rate mode : Constant
Bit rate : 590 kb/s
Width : 720 pixels
Height : 304 pixels
Display aspect ratio : 2.35:1
Frame rate mode : Constant
Frame rate : 24.000 FPS
Color space : YUV
Chroma subsampling : 4:2:0
Bit depth : 8 bits
Scan type : Progressive
Bits/(Pixel*Frame) : 0.112
Stream size : 491 MiB (59%)
Title : ☻rDX☻
Default : Yes
Forced : No

Audio
ID : 1
Format : AC-3
Format/Info : Audio Coding 3
Mode extension : CM (complete main)
Format settings, Endianness : Big
Codec ID : A_AC3
Duration : 2 h 0 min
Bit rate mode : Constant
Bit rate : 384 kb/s
Channel(s) : 6 channels
Channel positions : Front: L C R, Side: L R, LFE
Sampling rate : 48.0 kHz
Frame rate : 31.250 FPS (1536 spf)
Bit depth : 16 bits
Compression mode : Lossy
Stream size : 331 MiB (39%)
Title : ☻rDX☻
Default : Yes
Forced : No



IMDB : http://www.imdb.com/title/tt3906082




Sharing Widget


No Comments For This Torrent . Be The First to Comment

You must Login to Comment . Click Here to Login

Menu 1

Some content in menu 1.

Mary Shelley 2018 Movies HDRip x264 5 1 with Sample ☻rDX☻ (Size: 846.4 MB)
  Mary Shelley 2018 Movies HDRip x264 5 1 with Sample ☻rDX☻ 846.4 MB
tracker name
udp://tracker.leechers-paradise.org:6969/announce
udp://zer0day.ch:1337/announce
udp://open.demonii.com:1337/announce
udp://tracker.coppersurfer.tk:6969/announce
udp://exodus.desync.com:6969/announce
µTorrent compatible trackers list

Relative Torrents

Torrent Name Size Age SEED LEECH
The Little Stranger 2018 HDRip AC3 X264-MRG[EtMovies]
Posted by    EtHD   in   Movies
1.3 GB 1 minute 461 649
The Inkwell (1994) [BluRay] [1080p] [YTS [YIFY]
Posted by    YTSAGx   in   Movies
1.8 GB 1 minute 591 195
Village Rockstars (2017) Hindi HDRip x26 AAC Bollywood Movie ESub 480p [400MB]
Posted by    BDMovieHD   in   Movies
297.2 MB 1 minute 664 551
Manifest S01E07 XviD-AFG[TGx]
Posted by    mazemaze16   in   TV
359.5 MB 3 minutes 490 266
Rugrats S01E13 DSR x264-WaLMaRT [eztv]
Posted by    EZTVag   in   TV
217.6 MB 3 minutes 396 757