Villa 603 (2015) | Avellino | Violet & Daisy

Mary Shelley 2018 Movies 720p BluRay x26 Torrent Free Download

Seeders : 58   &   Leechers : 832      19-09-2018 (1 month)
Mary Shelley 2018 Movies 720p BluRay x26 Torrent Download
Added: ago by nehalpuja ***** in Movies   812.6 MB   Hits : 36
Info Hash: 73ADE0217708ECA8398CD84DA2A2A34B8F5A3302 Download
Mary Shelley 2018 Movies 720p BluRay x26 Torrent Download

Anonymous and Direct Download movies , software , shows...

Fast Safe Anonymous
movies, software, shows...
Mary Shelley
Biography /Drama /Romance  .   120 min   6.4/10
Director : Haifaa Al-Mansour  
Tags: Mary  Shelley  2018  Movies  720p  BluRay  

Released:
06 Jul 2018
Life and facts of Mary Wollstonecraft Godwin, who at 16 met 21 year old poet Percy Shelley, resulting in the writing of Frankenstein.

Torrent Description



Mary Shelley 2018 Movies 720p BluRay x264 AAC MSubs with Sample ☻rDX☻
===============================================================================================

SCREEN SHOTS:



or

http://iphonehosting.eu/2018/9/course/1.html

File size : 805 MiB
Duration : 2 h 0 min
Overall bit rate : 933 kb/s
Movie name : Mary Shelley 2018 Movies 720p BluRay x264 AAC MSubs ☻rDX☻

Video
ID : 4
Format : AVC
Format/Info : Advanced Video Codec
Format profile : [email protected]
Format settings, CABAC : Yes
Format settings, ReFrames : 2 frames
Format settings, GOP : M=1, N=25
Codec ID : V_MPEG4/ISO/AVC
Duration : 2 h 0 min
Bit rate mode : Constant
Bit rate : 800 kb/s
Width : 1 280 pixels
Height : 536 pixels
Display aspect ratio : 2.40:1
Frame rate mode : Constant
Frame rate : 29.970 (30000/1001) FPS
Color space : YUV
Chroma subsampling : 4:2:0
Bit depth : 8 bits
Scan type : Progressive
Bits/(Pixel*Frame) : 0.039
Stream size : 678 MiB (84%)
Title : ☻rDX☻
Default : Yes
Forced : No

Audio
ID : 1
Format : MPEG Audio
Format version : Version 1
Format profile : Layer 3
Mode : Joint stereo
Mode extension : MS Stereo
Codec ID : A_MPEG/L3
Codec ID/Hint : MP3
Duration : 2 h 0 min
Bit rate mode : Constant
Bit rate : 128 kb/s
Channel(s) : 2 channels
Sampling rate : 44.1 kHz
Compression mode : Lossy
Stream size : 110 MiB (14%)
Title : ☻rDX☻
Writing library : LAME3.99.5
Default : Yes
Forced : No

Text #1
ID : 2
Format : VobSub
Muxing mode : zlib
Title : ☻rDX☻
Language : English
Default : Yes
Forced : No

Text #2
ID : 3
Format : VobSub
Muxing mode : zlib
Title : ☻rDX☻
Language : Spanish
Default : No
Forced : No

http://www.imdb.com/title/tt3906082




Sharing Widget


No Comments For This Torrent . Be The First to Comment

You must Login to Comment . Click Here to Login

Menu 1

Some content in menu 1.

Mary Shelley 2018 Movies 720p BluRay x264 AAC MSubs with Sample ☻rDX (Size: 812.6 MB)
  Mary Shelley 2018 Movies 720p BluRay x264 AAC MSubs with Sample ☻rDX 812.6 MB
tracker name
udp://tracker.leechers-paradise.org:6969/announce
udp://zer0day.ch:1337/announce
udp://open.demonii.com:1337/announce
udp://tracker.coppersurfer.tk:6969/announce
udp://exodus.desync.com:6969/announce
µTorrent compatible trackers list

Relative Torrents

Torrent Name Size Age SEED LEECH
The Walking Dead S09E06 1080p AMZN WEB-D DD 5 1 x264 ESub [MW]
Posted by    moviezworldz   in   TV
1.1 GB 1 minute 784 371
The Hitmans BodyGuard 2017 1080p BluRay 264 Dual Audio [Hindi 2 0 - English 5 1
Posted by    moviezworldz   in   Movies
2.4 GB 3 minutes 171 241
The Meg 2018 1080p BluRay x264 Dual Audi [Hindi DD 5 1 - English DD 5 1] ESub [
Posted by    moviezworldz   in   Movies
3.7 GB 3 minutes 100 554
The 1990s-The Deadliest Decade S01E02 Th New Girl WEBRip x264-CAFFEiNE [eztv]
Posted by    EZTVag   in   TV
272.7 MB 6 minutes 776 400
The Little Stranger 2018 HDRip AC3 X264-MRG[EtMovies]
Posted by    EtHD   in   Movies
1.3 GB 9 minutes 461 649