Mary Shelley 2017 720p WEB-DL x264 ESub Torrent Free Download

Seeders : 118   &   Leechers : 800      03-06-2018 (5 months)
Mary Shelley 2017 720p WEB-DL x264 ESub Torrent Download
Added: ago by moviezworldz ***** in Movies   950.9 MB   Hits : 60
Info Hash: 41B9025C31FFFC63C183E232C527C0AF86E2E634 Download
Mary Shelley 2017 720p WEB-DL x264 ESub Torrent Download

Anonymous and Direct Download movies , software , shows...

Fast Safe Anonymous
movies, software, shows...
Mary Shelley
Biography /Drama /Romance  .   120 min   6.4/10
Director : Haifaa Al-Mansour  
Tags: Mary  Shelley  2017  720p  WEB-DL  x264  

Released:
06 Jul 2018
Life and facts of Mary Wollstonecraft Godwin, who at 16 met 21 year old poet Percy Shelley, resulting in the writing of Frankenstein.

Torrent Description








General
Format : Matroska
Format version : Version 4 / Version 2
File size : 951 MiB
Duration : 2 h 0 min
Overall bit rate : 1 103 kb/s

Video
ID : 1
Format : AVC
Format/Info : Advanced Video Codec
Format profile : [email protected]
Format settings : CABAC / 4 Ref Frames
Format settings, CABAC : Yes
Format settings, RefFrames : 4 frames
Codec ID : V_MPEG4/ISO/AVC
Duration : 2 h 0 min
Bit rate : 1 000 kb/s
Width : 1 280 pixels
Height : 532 pixels
Display aspect ratio : 2.40:1
Frame rate mode : Constant
Frame rate : 24.000 FPS
Color space : YUV
Chroma subsampling : 4:2:0
Bit depth : 8 bits
Scan type : Progressive
Bits/(Pixel*Frame) : 0.061
Stream size : 840 MiB (88%)
Writing library : x264 core 155 r2893 b00bcaf
Default : Yes
Forced : No

Audio
ID : 2
Format : AAC
Format/Info : Advanced Audio Codec
Format profile : HE-AAC / LC
Format settings : Explicit
Codec ID : A_AAC-2
Duration : 2 h 0 min
Bit rate : 127 kb/s
Channel(s) : 2 channels
Channel positions : Front: L R
Sampling rate : 48.0 kHz / 24.0 kHz
Frame rate : 23.438 FPS (1024 SPF)
Compression mode : Lossy
Stream size : 109 MiB (11%)
Language : English
Default : Yes
Forced : No

Text
ID : 3
Format : UTF-8
Codec ID : S_TEXT/UTF8
Codec ID/Info : UTF-8 Plain Text
Duration : 1 h 51 min
Bit rate : 52 b/s
Count of elements : 1267
Stream size : 42.9 KiB (0%)
Language : English
Default : Yes
Forced : No

Menu
00:00:00.000 : en:1
00:11:56.958 : en:2
00:24:55.958 : en:3
00:38:28.958 : en:4
00:48:44.000 : en:5
00:58:59.958 : en:6
01:13:52.958 : en:7
01:28:46.000 : en:8
01:39:24.958 : en:9
01:53:14.000 : en:10
















Sharing Widget


No Comments For This Torrent . Be The First to Comment

You must Login to Comment . Click Here to Login

Menu 1

Some content in menu 1.

Mary Shelley 2017 720p WEB-DL x264 ESub [MW] (Size: 950.9 MB)
  Mary Shelley 2017 720p WEB-DL x264 ESub [MW] 950.9 MB
tracker name
udp://tracker.leechers-paradise.org:6969/announce
udp://zer0day.ch:1337/announce
udp://open.demonii.com:1337/announce
udp://tracker.coppersurfer.tk:6969/announce
udp://exodus.desync.com:6969/announce
µTorrent compatible trackers list

Relative Torrents

Torrent Name Size Age SEED LEECH
Walks with My Dog Series 1 5of8 The Dungness 1080p HDTV x264 AAC MVGroup org mp
Posted by    Trige   in   TV
1.5 GB 9 minutes 579 232
The Real Housewives of Orange County S1318 WEB x264-TBS[TGx]
Posted by    mazemaze16   in   TV
603.0 MB 9 minutes 784 887
Walks with My Dog Series 1 4of8 The Isleof Mull 1080p HDTV x264 AAC MVGroup org
Posted by    Trige   in   TV
1.5 GB 9 minutes 457 981
Walks with My Dog Series 1 3of8 The bank of the River Thames 1080p HDTV x264 AA
Posted by    Trige   in   TV
1.6 GB 9 minutes 230 187
ONE Championship 84 Warriors Dream 720p EB DL x264-RM[TGx]
Posted by    mazemaze16   in   TV
5.9 GB 9 minutes 362 826
United States | Cánh Hoa Yêu | Paragraph on Road Safety