Mary Magdalene 2018 Movies BRRip x264 5 Torrent Free Download

Seeders : 939   &   Leechers : 180      28-06-2018 (4 months)
Mary Magdalene 2018 Movies BRRip x264 5 Torrent Download
Added: ago by nehalpuja ***** in Movies   846.9 MB   Hits : 28
Info Hash: 4D41A22727F3F79AB2F6D4FBED1C552291317C13 Download
Mary Magdalene 2018 Movies BRRip x264 5 Torrent Download

Anonymous and Direct Download movies , software , shows...

Fast Safe Anonymous
movies, software, shows...
Mary Magdalene
Drama   .   120 min   5.8/10
Director : Garth Davis  
Tags: Mary  Magdalene  2018  Movies  BRRip  x264  

Released:
16 Mar 2018
The story of Mary Magdalene.

Torrent Description



Mary Magdalene 2018 Movies BRRip x264 5.1 ESubs with Sample ☻rDX☻
===============================================================================================

SCREEN SHOTS:



or

http://iphonehosting.eu/2018/7/wifi/1.html

File size : 839 MiB
Duration : 1 h 59 min
Overall bit rate : 979 kb/s
Movie name : Mary Magdalene 2018 Movies BRRip x264 5.1 ESubs ☻rDX☻

Video
ID : 2
Format : AVC
Format/Info : Advanced Video Codec
Format profile : [email protected]
Format settings, CABAC : Yes
Format settings, ReFrames : 2 frames
Format settings, GOP : M=1, N=12
Codec ID : V_MPEG4/ISO/AVC
Duration : 1 h 59 min
Bit rate mode : Constant
Bit rate : 596 kb/s
Width : 720 pixels
Height : 320 pixels
Display aspect ratio : 2.25:1
Frame rate mode : Constant
Frame rate : 23.976 FPS
Color space : YUV
Chroma subsampling : 4:2:0
Bit depth : 8 bits
Scan type : Progressive
Bits/(Pixel*Frame) : 0.108
Stream size : 493 MiB (59%)
Title : ☻rDX☻
Default : Yes
Forced : No

Audio
ID : 1
Format : AC-3
Format/Info : Audio Coding 3
Mode extension : CM (complete main)
Format settings, Endianness : Big
Codec ID : A_AC3
Duration : 1 h 59 min
Bit rate mode : Constant
Bit rate : 384 kb/s
Channel(s) : 6 channels
Channel positions : Front: L C R, Side: L R, LFE
Sampling rate : 48.0 kHz
Frame rate : 31.250 FPS (1536 spf)
Bit depth : 16 bits
Compression mode : Lossy
Stream size : 329 MiB (39%)
Title : ☻rDX☻
Default : Yes
Forced : No

Text
ID : 3
Format : UTF-8
Codec ID : S_TEXT/UTF8
Codec ID/Info : UTF-8 Plain Text
Title : ☻rDX☻
Default : Yes
Forced : No



IMDB : http://www.imdb.com/title/tt5360996




Sharing Widget


No Comments For This Torrent . Be The First to Comment

You must Login to Comment . Click Here to Login

Menu 1

Some content in menu 1.

Mary Magdalene 2018 Movies BRRip x264 5 1 ESubs with Sample ☻rDX☻ (Size: 846.9 MB)
  Mary Magdalene 2018 Movies BRRip x264 5 1 ESubs with Sample ☻rDX☻ 846.9 MB
tracker name
udp://tracker.leechers-paradise.org:6969/announce
udp://zer0day.ch:1337/announce
udp://open.demonii.com:1337/announce
udp://tracker.coppersurfer.tk:6969/announce
udp://exodus.desync.com:6969/announce
µTorrent compatible trackers list

Relative Torrents

Torrent Name Size Age SEED LEECH
Teen Mom Young and Pregnant S01E21 WEB x64-TBS[TGx]
Posted by    mazemaze16   in   TV
513.4 MB 5 seconds 300 556
The Real Housewives of Orange County S1318 WEB x264-TBS [eztv]
Posted by    EZTVag   in   TV
600.3 MB 5 seconds 504 942
Magnum P I S01E09 The Ties That Bind 720 AMZN WEB-DL DDP5 1 H 264-NTb [eztv]
Posted by    EZTVag   in   TV
1.3 GB 5 seconds 355 616
The Real Housewives of Orange County S1318 720p WEB x264-TBS [eztv]
Posted by    EZTVag   in   TV
822.7 MB 5 seconds 293 160
Flipper 1996 BRRip XviD MP3-XVID
Posted by    Trige   in   Movies
1.2 GB 5 minutes 375 570
Bestseller - FilmeAlle Produkte | Pauschalreisen | Lagu White Snake Legend