Марлон / Marlon [02x01-06 из 10] (2018) HDTVRip 720p | Jaskier | Я худею | Stand-up ; Spectacle

Mary and Max (2009) + Extras (1080p BluR Torrent Free Download

Seeders : 742   &   Leechers : 995      27-08-2018 (2 months)
Mary and Max (2009) + Extras (1080p BluR Torrent Download
Added: ago by QxR ***** in Movies   3.1 GB   Hits : 45
Info Hash: 4C3E4094908BE038C98A1566D7C79A160EE8B8C3 Download
Mary and Max (2009) + Extras (1080p BluR Torrent Download

Anonymous and Direct Download movies , software , shows...

Fast Safe Anonymous
movies, software, shows...
Mary and Max
Animation /Comedy /Drama  .   92 min   8.1/10
Director : Adam Elliot  
Writer: Adam Elliot  
Tags: Mary  and  Max  (2009)  +  Extras  

Released:
09 Apr 2009
In the mid-1970's, a homely, friendless Australian girl of 8 picks a name out of a Manhattan phone book and writes to him; she includes a chocolate bar. She's Mary Dinkle, the only child of an alcoholic mother and a distracted father. He's Max Horowitz, an overweig.... See More ht man with Asperger's, living alone in New York. He writes back, with chocolate. Thus begins a 20-year correspondence, interrupted by a stay in an asylum and a few misunderstandings. Mary falls in love with a neighbor, saves money to have a birthmark removed and deals with loss. Max has a friendship with a neighbor, tries to control his weight, and finally gets the dream job. Will the two ever meet face to face?

Torrent Description





Note from Encoder:

Encoded with 2-Pass at 4,150 kb/s, includes English/Spanish subtitles and featurettes.





Media Information

Code:

General
Format : Matroska
Format version : Version 4 / Version 2
File size : 2.98 GiB
Duration : 1 h 32 min
Overall bit rate : 4 630 kb/s
Movie name : Mary and Max
Encoded date : UTC 2018-08-26 15:58:40
Writing application : mkvmerge v26.0.0 ('In The Game') 64-bit
Writing library : libebml v1.3.6 + libmatroska v1.4.9
Cover : Yes
Attachments : cover.jpg
Writing frontend : StaxRip v1.7.0.6

Video
ID : 1
Format : HEVC
Format/Info : High Efficiency Video Coding
Format profile : Main [email protected]@Main
Codec ID : V_MPEGH/ISO/HEVC
Duration : 1 h 32 min
Bit rate : 4 151 kb/s
Width : 1 912 pixels
Height : 1 048 pixels
Display aspect ratio : 1.85:1
Frame rate mode : Constant
Frame rate : 23.976 (24000/1001) FPS
Color space : YUV
Chroma subsampling : 4:2:0
Bit depth : 10 bits
Bits/(Pixel*Frame) : 0.086
Stream size : 2.68 GiB (90%)
Title : Encoded by r00t
Writing library : x265 2.8+66-88ee12651e30:[Windows][MSVC 1915][64 bit] 10bit
Encoding settings : cpuid=1111039 / frame-threads=2 / numa-pools=4 / wpp / no-pmode / no-pme / no-psnr / no-ssim / log-level=2 / input-csp=1 / input-res=1912x1048 / interlace=0 / total-frames=132730 / level-idc=0 / high-tier=1 / uhd-bd=0 / ref=4 / no-allow-non-conformance / no-repeat-headers / annexb / no-aud / no-hrd / info / hash=0 / no-temporal-layers / open-gop / min-keyint=23 / keyint=250 / gop-lookahead=0 / bframes=4 / b-adapt=2 / b-pyramid / bframe-bias=0 / rc-lookahead=25 / lookahead-slices=4 / scenecut=40 / radl=0 / no-intra-refresh / ctu=64 / min-cu-size=8 / no-rect / no-amp / max-tu-size=32 / tu-inter-depth=1 / tu-intra-depth=1 / limit-tu=0 / rdoq-level=2 / dynamic-rd=0.00 / no-ssim-rd / signhide / no-tskip / nr-intra=0 / nr-inter=0 / no-constrained-intra / no-strong-intra-smoothing / max-merge=3 / limit-refs=3 / limit-modes / me=3 / subme=3 / merange=57 / temporal-mvp / weightp / no-weightb / no-analyze-src-pics / deblock=0:0 / no-sao / no-sao-non-deblock / rd=4 / no-early-skip / no-rskip / no-fast-intra / no-tskip-fast / no-cu-lossless / no-b-intra / no-splitrd-skip / rdpenalty=0 / psy-rd=2.00 / psy-rdoq=1.00 / no-rd-refine / no-lossless / cbqpoffs=0 / crqpoffs=0 / rc=abr / bitrate=4150 / qcomp=0.60 / qpstep=4 / stats-write=0 / stats-read=2 / cplxblur=20.0 / qblur=0.5 / ipratio=1.40 / pbratio=1.30 / aq-mode=3 / aq-strength=1.00 / cutree / zone-count=0 / no-strict-cbr / qg-size=32 / no-rc-grain / qpmax=69 / qpmin=0 / no-const-vbv / sar=0 / overscan=0 / videoformat=5 / range=0 / colorprim=2 / transfer=2 / colormatrix=2 / chromaloc=0 / display-window=0 / max-cll=0,0 / min-luma=0 / max-luma=1023 / log2-max-poc-lsb=8 / vui-timing-info / vui-hrd-info / slices=1 / no-opt-qp-pps / no-opt-ref-list-length-pps / no-multi-pass-opt-rps / scenecut-bias=0.05 / no-opt-cu-delta-qp / no-aq-motion / no-hdr / no-hdr-opt / no-dhdr10-opt / no-idr-recovery-sei / analysis-reuse-level=5 / scale-factor=0 / refine-intra=0 / refine-inter=0 / refine-mv=0 / no-limit-sao / ctu-info=0 / no-lowpass-dct / refine-mv-type=0 / copy-pic=1 / max-ausize-factor=1.0 / no-dynamic-refine / no-single-sei
Default : Yes
Forced : No

Audio #1
ID : 2
Format : AAC
Format/Info : Advanced Audio Codec
Format profile : LC
Codec ID : A_AAC
Duration : 1 h 32 min
Bit rate : 368 kb/s
Channel(s) : 6 channels
Channel positions : Front: L C R, Side: L R, LFE
Sampling rate : 48.0 kHz
Frame rate : 46.875 FPS (1024 spf)
Compression mode : Lossy
Delay relative to video : 20 ms
Stream size : 243 MiB (8%)
Language : English
Default : Yes
Forced : No

Audio #2
ID : 3
Format : AAC
Format/Info : Advanced Audio Codec
Format profile : HE-AAC / LC
Codec ID : A_AAC
Duration : 1 h 32 min
Bit rate : 80.0 kb/s
Channel(s) : 2 channels
Channel positions : Front: L R
Sampling rate : 48.0 kHz / 24.0 kHz
Frame rate : 23.438 FPS (1024 spf)
Compression mode : Lossy
Delay relative to video : 40 ms
Stream size : 52.8 MiB (2%)
Title : Commentary
Language : English
Default : No
Forced : No

Subtitle #1
ID : 4
Format : PGS
Muxing mode : zlib
Codec ID : S_HDMV/PGS
Codec ID/Info : Picture based subtitle format used on BDs/HD-DVDs
Duration : 1 h 28 min
Bit rate : 41.7 kb/s
Count of elements : 2240
Stream size : 26.4 MiB (1%)
Language : Spanish
Default : No
Forced : No

Subtitle #2
ID : 5
Format : PGS
Muxing mode : zlib
Codec ID : S_HDMV/PGS
Codec ID/Info : Picture based subtitle format used on BDs/HD-DVDs
Duration : 1 h 31 min
Bit rate : 43.2 kb/s
Count of elements : 2852
Stream size : 28.3 MiB (1%)
Language : English
Default : No
Forced : No

Menu
00:00:00.000 : en:Chapter 00
00:02:32.026 : en:Chapter 01
00:08:27.507 : en:Chapter 02
00:13:58.546 : en:Chapter 03
00:19:19.575 : en:Chapter 04
00:25:48.672 : en:Chapter 05
00:31:40.148 : en:Chapter 06
00:38:03.656 : en:Chapter 07
00:44:28.874 : en:Chapter 08
00:49:48.151 : en:Chapter 09
00:55:58.146 : en:Chapter 10
01:01:13.544 : en:Chapter 11
01:07:33.758 : en:Chapter 12
01:12:31.138 : en:Chapter 13
01:18:36.253 : en:Chapter 14
01:24:53.463 : en:Chapter 15
01:29:04.255 : en:Chapter 16

Source Information

Code:

Release:
Mary and Max (2009) Raw BD50 (29.83 GB)


Note From QxR:

Quote:

Whilst we are happy for our releases to be re-posted on a platform we aren't on, please do so in an 'as-is' format. We ask that you do not create a new torrent, include all descriptions you see above including the QxR logo, tags, notes and screenshots. If you'd like to become a permanent poster on a website we don't post to, feel free to get in contact with a QxR member.





Sharing Widget


No Comments For This Torrent . Be The First to Comment

You must Login to Comment . Click Here to Login

Menu 1

Some content in menu 1.

Mary and Max (2009) + Extras (1080p BluRay x265 HEVC 10bit AAC 5 1 r00 (Size: 3.1 GB)
  Mary and Max (2009) + Extras (1080p BluRay x265 HEVC 10bit AAC 5 1 r00 3.1 GB
tracker name
udp://tracker.leechers-paradise.org:6969/announce
udp://zer0day.ch:1337/announce
udp://open.demonii.com:1337/announce
udp://tracker.coppersurfer.tk:6969/announce
udp://exodus.desync.com:6969/announce
µTorrent compatible trackers list

Relative Torrents

Torrent Name Size Age SEED LEECH
Vice News Tonight 2018 11 12 720p WEBRipx264-eSc [eztv]
Posted by    EZTVag   in   TV
399.8 MB 2 minutes 363 688
Nazi Overlord 2018 1080p WEB-DL DD5 1 H24-CMRG[TGx]
Posted by    mazemaze16   in   Movies
3.4 GB 5 minutes 284 322
The Little Stranger 2018 HDRip XviD AC3-VO[TGx]
Posted by    mazemaze16   in   Movies
1.3 GB 5 minutes 786 696
Nazi Overlord 2018 1080p WEB-DL DD5 1 H24-CMRG[EtHD]
Posted by    EtHD   in   Movies
3.4 GB 5 minutes 793 340
The Little Stranger 2018 HDRip XviD AC3-VO[EtMovies]
Posted by    EtHD   in   Movies
1.3 GB 5 minutes 5 294