Yung MelloLet It Breathe - Single Hip-Hop/Rap, Alternative Rap | Waves All Plugins Bundle | Kel O#39Neill

Mary and Max 2009 BluRay x265-12bit HEVC Torrent Free Download

Seeders : 286   &   Leechers : 910      19-07-2018 (3 months)
Mary and Max 2009 BluRay x265-12bit HEVC Torrent Download
Added: ago by vndtt1337x ***** in Movies   690.8 MB   Hits : 43
Info Hash: A677D95435E00F127B4DF9145D7438DDCA138029 Download
Mary and Max 2009 BluRay x265-12bit HEVC Torrent Download

Anonymous and Direct Download movies , software , shows...

Fast Safe Anonymous
movies, software, shows...
Mary and Max
Animation /Comedy /Drama  .   92 min   8.1/10
Director : Adam Elliot  
Writer: Adam Elliot  
Tags: Mary  and  Max  2009  BluRay  x265-12bit  

Released:
09 Apr 2009
In the mid-1970's, a homely, friendless Australian girl of 8 picks a name out of a Manhattan phone book and writes to him; she includes a chocolate bar. She's Mary Dinkle, the only child of an alcoholic mother and a distracted father. He's Max Horowitz, an overweig.... See More ht man with Asperger's, living alone in New York. He writes back, with chocolate. Thus begins a 20-year correspondence, interrupted by a stay in an asylum and a few misunderstandings. Mary falls in love with a neighbor, saves money to have a birthmark removed and deals with loss. Max has a friendship with a neighbor, tries to control his weight, and finally gets the dream job. Will the two ever meet face to face?

Torrent Description



General
Unique ID : 74855162983085826065050444050067758294 (0x3850947A19D1A7EEF06456AE42F61CD6)
Complete name : C:\Movies\Mary and Max 2009 BluRay x265-12bit AACv2-THOT.mkv
Format : Matroska
Format version : Version 4 / Version 2
File size : 691 MiB
Duration : 1h 32mn
Overall bit rate : 1 047 Kbps
Movie name : Mary and Max 2009 BluRay x265-12bit AACv2-THOT
Encoded date : UTC 2018-07-19 14:40:43
Writing application : mkvmerge v22.0.0 ('At The End Of The World') 64-bit
Writing library : libebml v1.3.5 + libmatroska v1.4.8

Subtitles : 32 languages

Video
ID : 1
Format : HEVC
Format/Info : High Efficiency Video Coding
Format profile : @[email protected]
Codec ID : V_MPEGH/ISO/HEVC
Duration : 1h 32mn
Bit rate : 988 Kbps
Width : 1 280 pixels
Height : 692 pixels
Display aspect ratio : 1.85:1
Frame rate mode : Constant
Frame rate : 23.976 (24000/1001) fps
Color space : YUV
Chroma subsampling : 4:2:0
Bit depth : 12 bits
Bits/(Pixel*Frame) : 0.047
Stream size : 652 MiB (94%)
Title : x265-12bit
Writing library : x265 2.7+25-e1ed4d609b52:[Windows][GCC 7.3.0][64 bit] 12bit
Default : Yes
Forced : No
Color range : Limited
Matrix coefficients : BT.709

Audio
ID : 2
Format : AAC
Format/Info : Advanced Audio Codec
Format profile : HE-AACv2 / HE-AAC / LC
Codec ID : A_AAC
Duration : 1h 32mn
Bit rate : 52.7 Kbps
Channel(s) : 2 channels / 1 channel / 1 channel
Channel positions : Front: L R / Front: C / Front: C
Sampling rate : 48.0 KHz / 48.0 KHz / 24.0 KHz
Frame rate : 23.438 fps (1024 spf)
Compression mode : Lossy
Stream size : 34.8 MiB (5%)
Title : AACv2
Default : Yes
Forced : No




Sharing Widget


No Comments For This Torrent . Be The First to Comment

You must Login to Comment . Click Here to Login

Menu 1

Some content in menu 1.

Mary and Max 2009 BluRay x265-12bit HEVC AACv2-THOT (Size: 690.8 MB)
  Mary and Max 2009 BluRay x265-12bit HEVC AACv2-THOT 690.8 MB
tracker name
udp://tracker.leechers-paradise.org:6969/announce
udp://zer0day.ch:1337/announce
udp://open.demonii.com:1337/announce
udp://tracker.coppersurfer.tk:6969/announce
udp://exodus.desync.com:6969/announce
µTorrent compatible trackers list

Relative Torrents

Torrent Name Size Age SEED LEECH
Incredibles 2 2018 1080p Bluray Dual Audo Hindi BD 5 1 English 6CH x264 MAVI
Posted by    sujit2324   in   Movies
7.0 GB 23 minutes 480 729
Why Did I Get Married 2007 720p BluRay H64 AAC
Posted by    Trige   in   Movies
1.4 GB 35 minutes 130 899
Going Back (2001) [BluRay] [720p] [YTS] YIFY]
Posted by    YTSAGx   in   Movies
1,010.9 MB 56 minutes 818 478
The Meg (2018) 1080p 10bit Bluray x265 HVC [Org BD 5 1 Hindi + DD 5 1 English]
Posted by    McuDudeS   in   Movies
3.4 GB 59 minutes 471 218
Midnight Texas S02E03 To Witch Hell and ack 1080p AMZN WEBRip DDP2 0 x264-BLOQ
Posted by    Trige   in   TV
1.2 GB 1 hour 585 478